<?xml version="1.0" standalone="no"?>
<!DOCTYPE svg PUBLIC "-//W3C//DTD SVG 1.1//EN" "http://www.w3.org/Graphics/SVG/1.1/DTD/svg11.dtd">
<svg xmlns="http://www.w3.org/2000/svg">
<defs >
<font id="WorkSans" horiz-adv-x="588" ><font-face
    font-family="Work Sans SemiBold"
    units-per-em="1000"
    panose-1="0 0 7 0 0 0 0 0 0 0"
    ascent="930"
    descent="-243"
    alphabetic="0" />
<glyph unicode=" " glyph-name="space" horiz-adv-x="306" />
<glyph unicode="!" glyph-name="exclam" horiz-adv-x="291" d="M217 420L200 213H90L73 420V660H217V420ZM184 145T207 124T230 68Q230 33 207 12T145 -9Q106 -9 83 12T60 68Q60 103 83 124T145 145Q184 145 207 124Z" />
<glyph unicode="&quot;" glyph-name="quotedbl" horiz-adv-x="431" d="M351 416H257V682H379L351 416ZM164 416H70V682H192L164 416Z" />
<glyph unicode="#" glyph-name="numbersign" horiz-adv-x="671" d="M513 406L489 257H603V170H475L447 0H349L377 170H234L206 0H108L135 170H24V257H150L174 406H67V493H188L215 660H314L287 493H429L457 660H555L528 493H646V406H513ZM415 406H272L248 257H391L415
406Z" />
<glyph unicode="$" glyph-name="dollar" horiz-adv-x="629" d="M279 1Q190 8 130 43T33 143L114 219Q132 171 176 140T279 100V282Q212 295 166 312T88 366T57 462Q57 541 116 594T279 658V752H365V658Q446 652 497 621T590 532L513 453Q485 503 451 528T365 559V373Q432
359 478 341T556 286T587 188Q587 109 526 60T365 2V-92H279V1ZM279 558Q232 551 208 529T183 471Q183 439 207 421T279 391V558ZM462 111T462 181Q462 214 437 232T365 263V100Q462 111 462 181Z" />
<glyph unicode="%" glyph-name="percent" horiz-adv-x="908" d="M290 670T338 619T386 484Q386 400 338 349T210 298Q131 298 83 349T34 484Q34 568 82 619T210 670Q290 670 338 619ZM622 660H732L287 0H177L622 660ZM176 575T158 551T140 484Q140 441 158 418T210
394Q244 394 262 417T280 484Q280 527 262 551T210 575Q176 575 158 551ZM777 362T825 311T874 176Q874 92 826 41T698 -10Q618 -10 570 41T522 176Q522 260 570 311T698 362Q777 362 825 311ZM664 266T646 243T628 176Q628 133 646 109T698 85Q732 85 750 109T768
176Q768 219 750 242T698 266Q664 266 646 243Z" />
<glyph unicode="&amp;" glyph-name="ampersand" horiz-adv-x="638" d="M620 -10Q569 -10 533 3T451 57Q415 25 366 8T258 -10Q157 -10 96 38T34 169Q34 225 67 273T178 353Q136 403 121 437T106 510Q106 551 127 587T189 647T290 670Q374 670 423 630T472 521Q472
463 440 419T332 339Q373 293 388 275L413 247Q448 206 460 193Q493 258 489 345L584 340Q586 280 570 227T520 132Q547 107 569 97T619 87Q631 87 637 88L620 -10ZM261 574T244 556T226 507Q226 484 237 462T283 398Q330 428 345 454T360 515Q360 544 342 559T292
574Q261 574 244 556ZM153 136T185 111T267 85Q334 85 389 117Q352 156 316 197L297 218Q253 266 233 289Q186 257 170 233T153 176Q153 136 185 111Z" />
<glyph unicode="&apos;" glyph-name="quotesingle" horiz-adv-x="244" d="M164 416H70V682H192L164 416Z" />
<glyph unicode="(" glyph-name="parenleft" horiz-adv-x="376" d="M359 675Q269 593 231 501T192 276Q192 142 230 50T359 -124L291 -191Q179 -108 122 9T65 276Q65 425 122 542T291 742L359 675Z" />
<glyph unicode=")" glyph-name="parenright" horiz-adv-x="376" d="M197 659T254 542T311 276Q311 127 254 10T85 -191L17 -124Q107 -42 145 50T184 276Q184 409 146 501T17 675L85 742Q197 659 254 542Z" />
<glyph unicode="*" glyph-name="asterisk" horiz-adv-x="582" d="M397 423L475 318L394 259L318 366L291 421L264 366L188 259L107 318L186 423L229 466L169 475L44 514L74 609L199 567L253 538L243 599L240 730H341L339 599L329 538L383 567L508 609L538 514L413
475L353 466L397 423Z" />
<glyph unicode="+" glyph-name="plus" horiz-adv-x="604" d="M550 270H359V63H246V270H54V374H246V580H359V374H550V270Z" />
<glyph unicode="," glyph-name="comma" horiz-adv-x="281" d="M185 153T210 121T235 36Q235 -25 203 -75T107 -154L44 -106Q88 -89 118 -62T158 -1L154 2Q144 -8 125 -8Q96 -8 74 12T52 69Q52 108 76 130T139 153Q185 153 210 121Z" />
<glyph unicode="-" glyph-name="hyphen" horiz-adv-x="521" d="M437 206H84V324H437V206Z" />
<glyph unicode="." glyph-name="period" horiz-adv-x="281" d="M181 153T204 131T228 72Q228 35 205 13T141 -9Q101 -9 78 12T54 72Q54 110 77 131T141 153Q181 153 204 131Z" />
<glyph unicode="/" glyph-name="slash" horiz-adv-x="457" d="M147 -70H20L309 719H437L147 -70Z" />
<glyph unicode="0" glyph-name="zero" horiz-adv-x="636" d="M187 -10T121 76T54 330Q54 498 120 584T318 670Q449 670 515 584T582 330Q582 162 516 76T318 -10Q187 -10 121 76ZM382 101T413 157T444 330Q444 447 413 503T318 559Q254 559 223 503T192 330Q192
213 223 157T318 101Q382 101 413 157Z" />
<glyph unicode="1" glyph-name="one" horiz-adv-x="428" d="M343 660V0H209V492Q209 508 210 517Q174 484 133 461T49 430L31 546Q77 551 141 587T231 660H343Z" />
<glyph unicode="2" glyph-name="two" horiz-adv-x="591" d="M65 94Q186 175 257 236T360 349T392 452Q392 499 364 528T285 557Q230 557 198 519T163 411L44 456Q51 556 118 613T293 670Q370 670 423 641T504 565T531 460Q531 367 461 285T238 108V107Q296 111
359 111H541V0H65V94Z" />
<glyph unicode="3" glyph-name="three" horiz-adv-x="589" d="M402 670T461 620T521 490Q521 441 501 406T452 352T397 334V331Q430 331 461 314T513 263T534 179Q534 124 503 81T415 14T287 -10Q190 -10 129 29T39 152L164 208Q175 153 204 127T288 101Q339 101
369 126T399 195Q399 241 371 261T281 282H248V378H276Q384 378 384 469Q384 513 360 536T290 559Q244 559 216 535T181 465L58 510Q77 589 140 629T296 670Q402 670 461 620Z" />
<glyph unicode="4" glyph-name="four" horiz-adv-x="633" d="M598 155H491V0H366V155H37V228L326 660H491V255H598V155ZM170 255H366V457L369 565H367Q345 514 307 456L170 255Z" />
<glyph unicode="5" glyph-name="five" horiz-adv-x="582" d="M424 425T479 369T535 220Q535 109 468 50T290 -10Q201 -10 141 23T42 129L166 198Q179 149 206 125T289 100Q344 100 375 129T407 211Q406 265 377 293T292 322Q209 322 171 274L63 286L104 660H501V549H208L189
394L186 375H187Q209 399 245 412T328 425Q424 425 479 369Z" />
<glyph unicode="6" glyph-name="six" horiz-adv-x="617" d="M419 670T474 636T558 526L442 472Q416 556 327 556Q285 556 252 528T201 448T182 331V314H185Q201 363 247 388T353 413Q416 413 465 388T541 315T569 205Q569 106 504 48T325 -10Q197 -10 128 79T58
330Q58 441 94 517T192 632T336 670Q419 670 474 636ZM276 312T245 283T214 207Q214 158 245 129T327 100Q380 100 409 128T439 207Q439 256 410 284T327 312Q276 312 245 283Z" />
<glyph unicode="7" glyph-name="seven" horiz-adv-x="595" d="M564 660V555Q444 435 392 300T340 0H202Q202 313 426 547H41V660H564Z" />
<glyph unicode="8" glyph-name="eight" horiz-adv-x="623" d="M419 668T482 620T545 488Q545 437 519 399T445 342V341Q504 320 536 278T569 176Q569 90 500 40T311 -10Q193 -10 124 40T54 176Q54 236 86 278T179 341V342Q131 361 105 399T78 488Q78 572 140 620T311
668Q419 668 482 620ZM264 562T237 539T210 475Q210 435 237 412T311 388Q358 388 385 411T413 475Q413 516 386 539T311 562Q264 562 237 539ZM369 97T401 122T433 193Q433 239 401 264T311 290Q255 290 222 264T189 193Q189 148 222 123T311 97Q369 97 401 122Z"
/>
<glyph unicode="9" glyph-name="nine" horiz-adv-x="618" d="M425 670T494 581T564 328Q564 158 494 74T294 -10Q203 -10 145 26T56 136L183 190Q195 145 219 123T295 100Q370 100 404 158T439 325V339H435Q422 288 375 263T268 238Q206 238 157 264T80 338T51
450Q51 552 116 611T297 670Q425 670 494 581ZM241 557T212 529T183 450Q183 400 212 372T295 344Q346 344 376 373T407 450Q407 499 377 528T295 557Q241 557 212 529Z" />
<glyph unicode=":" glyph-name="colon" horiz-adv-x="300" d="M190 510T213 488T237 429Q237 392 214 370T150 348Q110 348 87 369T63 429Q63 467 86 488T150 510Q190 510 213 488ZM190 153T213 131T237 72Q237 35 214 13T150 -9Q110 -9 87 12T63 72Q63 110 86
131T150 153Q190 153 213 131Z" />
<glyph unicode=";" glyph-name="semicolon" horiz-adv-x="300" d="M113 348T90 369T66 429Q66 467 89 488T153 510Q193 510 216 489T240 429Q240 391 217 370T153 348Q113 348 90 369ZM195 153T220 121T245 36Q245 -25 213 -75T117 -154L54 -106Q99 -89 129 -62T169
-1L165 2Q153 -8 135 -8Q106 -8 84 12T62 69Q62 107 86 130T149 153Q195 153 220 121Z" />
<glyph unicode="&lt;" glyph-name="less" horiz-adv-x="604" d="M551 449L162 298L551 146V14L66 234V361L551 582V449Z" />
<glyph unicode="=" glyph-name="equal" horiz-adv-x="604" d="M540 366H64V468H540V366ZM540 156H64V257H540V156Z" />
<glyph unicode="&gt;" glyph-name="greater" horiz-adv-x="604" d="M538 361V234L53 14V146L442 298L53 449V582L538 361Z" />
<glyph unicode="?" glyph-name="question" horiz-adv-x="583" d="M405 670T471 625T538 493Q538 406 487 361T349 306L342 212H220L214 363Q309 373 350 399T391 473Q391 512 365 533T286 555Q234 555 202 526T165 442L35 496Q48 576 113 623T295 670Q405 670
471 625ZM321 147T344 126T367 69Q367 33 344 12T281 -9Q241 -9 219 12T196 69Q196 105 218 126T281 147Q321 147 344 126Z" />
<glyph unicode="@" glyph-name="at" horiz-adv-x="960" d="M626 660T717 611T855 471T902 260Q902 176 876 117T804 28T702 -2Q651 -2 619 22T571 86Q517 2 409 2Q336 2 290 55T244 195Q244 281 275 342T359 435T474 467Q528 467 559 444T601 386L621 458H717L675
163Q673 143 673 135Q673 104 686 89T730 73Q776 73 803 121T830 260Q830 416 743 503T498 591Q388 591 306 547T179 419T134 223Q134 117 178 40T299 -78T467 -119Q544 -119 590 -104T674 -60L714 -114Q662 -150 608 -169T465 -188Q345 -188 252 -138T107 5T55
223Q55 352 111 451T267 605T498 660Q626 660 717 611ZM433 375T398 331T363 210Q363 156 386 127T451 97Q493 97 524 123T562 198L572 267Q574 283 574 291Q574 330 554 352T490 375Q433 375 398 331Z" />
<glyph unicode="A" glyph-name="A" horiz-adv-x="671" d="M461 161H207L153 0H12L253 660H418L659 0H516L461 161ZM427 263L365 449L335 549H333L305 451L241 263H427Z" />
<glyph unicode="B" glyph-name="B" horiz-adv-x="672" d="M86 660H375Q493 660 551 614T609 480Q609 425 576 385T483 334V333Q551 323 588 282T626 181Q626 95 564 48T385 0H86V660ZM356 383Q466 383 466 468Q466 553 356 553H220V383H356ZM373 104Q428 104 455
126T483 191Q483 233 456 255T373 277H220V104H373Z" />
<glyph unicode="C" glyph-name="C" horiz-adv-x="683" d="M622 87T548 39T371 -10Q274 -10 202 31T92 148T53 330Q53 435 91 511T201 629T369 670Q472 670 543 627T642 499L517 446Q501 505 467 531T375 557Q291 557 244 498T196 330Q196 221 242 162T372 103Q493
103 524 220L651 182Q622 87 548 39Z" />
<glyph unicode="D" glyph-name="D" horiz-adv-x="719" d="M496 660T581 574T666 330Q666 172 581 86T341 0H86V660H341Q496 660 581 574ZM428 110T475 166T523 330Q523 437 476 493T334 550H224V110H334Q428 110 475 166Z" />
<glyph unicode="E" glyph-name="E" horiz-adv-x="633" d="M595 111V0H86V660H581V549H224V385H505V279H224V111H595Z" />
<glyph unicode="F" glyph-name="F" horiz-adv-x="612" d="M224 549V382H505V270H224V0H86V660H580V549H224Z" />
<glyph unicode="G" glyph-name="G" horiz-adv-x="723" d="M658 349V0H557L554 79Q494 -10 359 -10Q268 -10 199 30T92 146T53 329Q53 434 92 511T204 629T374 670Q481 670 548 631T655 508L528 453Q513 504 474 530T378 557Q292 557 244 498T196 330Q196 217 243
159T381 101Q451 101 495 134T539 232V247H346V349H658Z" />
<glyph unicode="H" glyph-name="H" horiz-adv-x="739" d="M653 660V0H515V278H224V0H86V660H224V389H515V660H653Z" />
<glyph unicode="I" glyph-name="I" horiz-adv-x="310" d="M224 0H86V660H224V0Z" />
<glyph unicode="J" glyph-name="J" horiz-adv-x="601" d="M525 243Q525 124 457 57T266 -10Q152 -10 93 42T34 186Q34 214 40 245L175 269Q171 241 171 213Q171 156 195 130T270 103Q334 103 360 141T387 262V660H525V243Z" />
<glyph unicode="K" glyph-name="K" horiz-adv-x="679" d="M318 302L224 195V0H86V660H224V347L495 660H655L418 391L663 0H505L318 302Z" />
<glyph unicode="L" glyph-name="L" horiz-adv-x="601" d="M572 111V0H86V660H224V111H572Z" />
<glyph unicode="M" glyph-name="M" horiz-adv-x="890" d="M804 0H680V344L686 537H684L501 0H388L206 537H204L211 344V0H86V660H286L405 300L447 151H449L492 299L610 660H804V0Z" />
<glyph unicode="N" glyph-name="N" horiz-adv-x="739" d="M653 0H495L264 388L207 499H206L210 382V0H86V660H243L474 273L531 161H533L529 278V660H653V0Z" />
<glyph unicode="O" glyph-name="O" horiz-adv-x="741" d="M468 670T539 629T649 512T688 330Q688 225 650 149T540 31T371 -10Q274 -10 202 31T92 148T53 330Q53 435 91 511T202 629T371 670Q468 670 539 629ZM287 557T242 499T196 330Q196 220 241 162T371 103Q454
103 499 161T545 330Q545 440 500 498T371 557Q287 557 242 499Z" />
<glyph unicode="P" glyph-name="P" horiz-adv-x="646" d="M478 660T542 605T606 448Q606 350 542 295T363 240H224V0H86V660H363Q478 660 542 605ZM406 347T436 372T466 449Q466 500 436 525T342 550H224V347H342Q406 347 436 372Z" />
<glyph unicode="Q" glyph-name="Q" horiz-adv-x="741" d="M567 -86T598 -76T649 -48L685 -154Q659 -176 616 -188T523 -201Q427 -201 373 -152T321 -7Q195 8 124 97T53 330Q53 435 91 511T202 629T371 670Q468 670 539 629T649 512T688 330Q688 185 616 96T417
-7Q422 -52 450 -69T528 -86Q567 -86 598 -76ZM196 220T241 162T371 103Q454 103 499 161T545 330Q545 440 500 498T371 557Q287 557 242 499T196 330Q196 220 241 162Z" />
<glyph unicode="R" glyph-name="R" horiz-adv-x="680" d="M346 253H222V0H86V660H377Q490 660 553 607T617 456Q617 385 582 337T482 268L656 0H501L346 253ZM222 358H359Q419 358 447 381T476 454Q476 503 448 526T359 550H222V358Z" />
<glyph unicode="S" glyph-name="S" horiz-adv-x="643" d="M419 670T485 640T601 543L506 450Q480 504 437 530T328 557Q268 557 236 535T203 475Q203 441 236 421T355 386Q445 369 498 344T575 282T600 188Q600 127 566 83T470 14T329 -10Q220 -10 151 20T38 113L120
211Q157 150 205 127T324 103Q388 103 421 123T455 180Q455 207 424 225T311 259Q218 278 163 304T82 368T57 462Q57 521 89 568T182 643T327 670Q419 670 485 640Z" />
<glyph unicode="T" glyph-name="T" horiz-adv-x="635" d="M608 549H387V0H249V549H27V660H608V549Z" />
<glyph unicode="U" glyph-name="U" horiz-adv-x="715" d="M640 260Q640 126 569 58T358 -10Q219 -10 148 58T76 260V660H214V266Q214 183 249 143T358 103Q431 103 466 143T501 266V660H640V260Z" />
<glyph unicode="V" glyph-name="V" horiz-adv-x="670" d="M416 0H255L14 660H160L299 240L337 110L374 239L514 660H656L416 0Z" />
<glyph unicode="W" glyph-name="W" horiz-adv-x="984" d="M370 0H211L19 660H168L296 109L428 660H560L694 109L822 660H964L772 0H617L525 360L494 516H492L461 360L370 0Z" />
<glyph unicode="X" glyph-name="X" horiz-adv-x="640" d="M459 0L315 239L174 0H16L243 333L32 660H195L329 430L463 660H612L400 338L624 0H459Z" />
<glyph unicode="Y" glyph-name="Y" horiz-adv-x="626" d="M382 247V0H244V247L10 660H157L263 463L313 359L364 463L470 660H616L382 247Z" />
<glyph unicode="Z" glyph-name="Z" horiz-adv-x="633" d="M593 110V0H44V104L429 550H52V660H581V556L196 110H593Z" />
<glyph unicode="[" glyph-name="bracketleft" horiz-adv-x="375" d="M206 618V-67H347V-168H86V719H347V618H206Z" />
<glyph unicode="\" glyph-name="backslash" horiz-adv-x="457" d="M148 719L437 -70H310L20 719H148Z" />
<glyph unicode="]" glyph-name="bracketright" horiz-adv-x="375" d="M290 -168H28V-67H169V618H28V719H290V-168Z" />
<glyph unicode="^" glyph-name="asciicircum" horiz-adv-x="593" d="M443 355L297 633L150 355H25L237 726H356L568 355H443Z" />
<glyph unicode="_" glyph-name="underscore" horiz-adv-x="539" d="M539 -190H0V-77H539V-190Z" />
<glyph unicode="`" glyph-name="grave" horiz-adv-x="500" d="M308 572H206L106 742H238L308 572Z" />
<glyph unicode="a" glyph-name="a" horiz-adv-x="574" d="M550 83T563 87L553 4Q525 -10 488 -10Q392 -10 373 65Q351 28 305 9T196 -10Q123 -10 82 23T41 118Q41 240 236 276L356 299V323Q356 363 334 386T271 410Q225 410 196 390T156 325L47 371Q63 436 119
473T265 510Q372 510 432 464T492 326V121Q492 101 501 92T529 83Q550 83 563 87ZM283 83T319 104T356 163V215L249 191Q215 183 199 170T182 132Q182 108 197 96T239 83Q283 83 319 104Z" />
<glyph unicode="b" glyph-name="b" horiz-adv-x="629" d="M466 510T523 441T580 249Q580 127 523 59T366 -10Q307 -10 264 19T198 99L193 0H72V719H209V418Q232 461 272 485T366 510Q466 510 523 441ZM381 95T412 135T443 250Q443 325 412 365T325 405Q275 405
244 370T209 272V228Q213 164 244 130T325 95Q381 95 412 135Z" />
<glyph unicode="c" glyph-name="c" horiz-adv-x="569" d="M400 510T455 470T530 363L402 317Q384 408 305 408Q246 408 215 368T183 249Q183 171 215 132T304 92Q392 92 408 181L532 141Q516 72 458 31T306 -10Q182 -10 114 58T46 250Q46 373 113 441T301 510Q400
510 455 470Z" />
<glyph unicode="d" glyph-name="d" horiz-adv-x="629" d="M556 719V0H434L428 93Q406 46 363 18T263 -10Q163 -10 106 58T49 249Q49 372 106 441T263 510Q317 510 357 486T419 418V719H556ZM357 95T388 134T419 245V255Q419 326 388 365T303 405Q248 405 217 365T186
250Q186 175 217 135T303 95Q357 95 388 134Z" />
<glyph unicode="e" glyph-name="e" horiz-adv-x="582" d="M539 224T535 198H181Q202 92 306 92Q349 92 377 108T416 154L528 113Q504 53 448 22T306 -10Q182 -10 114 58T46 250Q46 373 112 441T298 510Q414 510 476 443T539 252Q539 224 535 198ZM247 409T218
380T180 294H413Q405 350 375 379T297 409Q247 409 218 380Z" />
<glyph unicode="f" glyph-name="f" horiz-adv-x="407" d="M239 500H397V398H245V0H108V398H21V500H108V560Q108 642 159 685T297 729Q330 729 357 722T401 703L382 612Q359 627 325 627Q239 627 239 550V500Z" />
<glyph unicode="g" glyph-name="g" horiz-adv-x="560" d="M458 94T502 58T547 -45Q547 -125 473 -170T278 -215Q153 -215 93 -182T32 -92Q32 -58 55 -33T123 3Q89 17 69 42T49 103Q49 139 70 165T128 204Q90 226 70 260T50 340Q50 419 111 464T279 510Q333 510
380 497Q393 556 430 589T532 619L550 521Q543 522 529 522Q492 522 468 509T433 474Q470 452 489 418T509 340Q509 262 448 217T279 171Q230 171 189 180Q150 170 150 135Q150 115 165 105T207 94H376Q458 94 502 58ZM239 424T214 401T188 341Q188 303 213 280T279
257Q320 257 345 280T371 341Q371 378 346 401T279 424Q239 424 214 401ZM359 -121T397 -104T435 -59Q435 -38 418 -28T360 -17H224Q141 -17 141 -62Q141 -90 178 -105T289 -121Q359 -121 397 -104Z" />
<glyph unicode="h" glyph-name="h" horiz-adv-x="619" d="M451 510T500 463T550 328V0H413V288Q413 402 324 402Q276 402 243 368T209 264V0H72V719H209V415Q232 463 273 486T370 510Q451 510 500 463Z" />
<glyph unicode="i" glyph-name="i" horiz-adv-x="282" d="M56 572T56 645Q56 719 141 719Q226 719 226 645Q226 572 141 572Q56 572 56 645ZM209 0H72V500H209V0Z" />
<glyph unicode="j" glyph-name="j" horiz-adv-x="281" d="M182 719T204 700T226 645Q226 610 204 591T141 572Q100 572 78 591T56 645Q56 680 78 699T141 719Q182 719 204 700ZM209 -37Q209 -130 161 -172T31 -215Q-41 -215 -89 -183L-67 -85Q-40 -109 3 -109Q37
-109 54 -89T72 -24V500H209V-37Z" />
<glyph unicode="k" glyph-name="k" horiz-adv-x="602" d="M300 221L209 124V0H72V719H209V272L426 500H581L393 304L593 0H438L300 221Z" />
<glyph unicode="l" glyph-name="l" horiz-adv-x="319" d="M207 159Q207 123 217 109T256 95Q273 95 285 97T315 106L303 11Q287 1 261 -4T210 -10Q137 -10 104 25T70 139V719H207V159Z" />
<glyph unicode="m" glyph-name="m" horiz-adv-x="945" d="M775 510T825 463T876 328V0H739V301Q739 353 716 377T653 402Q605 402 574 367T543 269V0H406V301Q406 353 383 377T319 402Q274 402 242 368T209 265V0H72V500H195L199 411Q224 460 267 485T365 510Q421
510 464 484T528 409Q552 458 598 484T698 510Q775 510 825 463Z" />
<glyph unicode="n" glyph-name="n" horiz-adv-x="619" d="M451 510T500 463T550 328V0H413V288Q413 402 324 402Q276 402 243 368T209 264V0H72V500H195L199 411Q224 460 268 485T370 510Q451 510 500 463Z" />
<glyph unicode="o" glyph-name="o" horiz-adv-x="604" d="M423 510T490 441T558 250Q558 128 491 59T302 -10Q181 -10 114 59T46 250Q46 372 113 441T302 510Q423 510 490 441ZM244 408T214 369T183 250Q183 171 213 132T302 92Q360 92 390 131T421 250Q421 329
391 368T302 408Q244 408 214 369Z" />
<glyph unicode="p" glyph-name="p" horiz-adv-x="629" d="M466 510T523 442T580 251Q580 128 523 59T366 -10Q312 -10 272 14T209 82V-210H72V500H193L198 401Q220 451 263 480T366 510Q466 510 523 442ZM381 95T412 135T443 250Q443 325 412 365T325 405Q275
405 244 371T209 272V228Q213 165 244 130T325 95Q381 95 412 135Z" />
<glyph unicode="q" glyph-name="q" horiz-adv-x="629" d="M557 500V-210H420V83Q398 40 358 15T264 -10Q164 -10 107 59T49 251Q49 373 106 441T263 510Q321 510 365 481T431 402L437 500H557ZM358 95T389 134T420 245V255Q420 327 389 366T304 405Q249 405 218
366T187 250Q187 174 218 135T304 95Q358 95 389 134Z" />
<glyph unicode="r" glyph-name="r" horiz-adv-x="422" d="M390 510T409 499L392 379Q369 394 329 394Q280 394 245 359T209 259V0H72V500H191L200 402Q241 510 355 510Q390 510 409 499Z" />
<glyph unicode="s" glyph-name="s" horiz-adv-x="531" d="M99 -10T34 86L114 168Q134 125 171 108T264 90Q308 90 332 102T356 135Q356 152 334 164T256 187Q141 210 95 247T48 349Q48 391 74 428T151 487T273 510Q357 510 409 485T496 404L411 332Q389 372 357
391T275 410Q234 410 210 396T185 362Q185 341 209 327T294 301Q403 279 448 244T494 145Q494 75 435 33T266 -10Q99 -10 34 86Z" />
<glyph unicode="t" glyph-name="t" horiz-adv-x="429" d="M415 31Q391 12 355 1T278 -10Q111 -10 111 141V398H20V500H111V615L248 653V500H410V398H248V163Q248 94 317 94Q361 94 394 122L415 31Z" />
<glyph unicode="u" glyph-name="u" horiz-adv-x="619" d="M547 500V0H425L420 86Q372 -10 245 -10Q164 -10 117 33T69 169V500H206V204Q206 146 228 122T293 98Q345 98 377 131T410 232V500H547Z" />
<glyph unicode="v" glyph-name="v" horiz-adv-x="546" d="M542 500L352 0H194L4 500H151L274 96L400 500H542Z" />
<glyph unicode="w" glyph-name="w" horiz-adv-x="889" d="M869 500L710 0H551L442 353L337 0H179L20 500H165L265 110L377 500H512L624 110L724 500H869Z" />
<glyph unicode="x" glyph-name="x" horiz-adv-x="569" d="M395 0L282 182L167 0H14L198 253L23 500H181L288 325L395 500H549L372 253L552 0H395Z" />
<glyph unicode="y" glyph-name="y" horiz-adv-x="557" d="M349 -31Q312 -133 264 -174T134 -215Q53 -215 7 -176L41 -79Q57 -97 76 -103T125 -110Q156 -110 175 -97T207 -50L225 -7L170 123L17 500H169L263 200L290 100L320 206L412 500H551L349 -31Z" />
<glyph unicode="z" glyph-name="z" horiz-adv-x="522" d="M44 88L265 344L322 401L239 399H46V500H474V412L253 157L196 99L288 101H483V0H44V88Z" />
<glyph unicode="{" glyph-name="braceleft" horiz-adv-x="395" d="M262 -65T286 -81T364 -98L356 -191Q244 -191 196 -155T148 -37V124Q148 180 123 204T36 228V323Q97 323 122 347T148 427V589Q148 669 196 705T356 742L364 649Q310 649 286 633T262 578V402Q262
351 236 321T156 275Q209 261 235 231T262 149V-27Q262 -65 286 -81Z" />
<glyph unicode="|" glyph-name="bar" horiz-adv-x="292" d="M206 -168H86V719H206V-168Z" />
<glyph unicode="}" glyph-name="braceright" horiz-adv-x="395" d="M246 371T271 347T358 323V228Q297 228 272 204T246 124V-37Q246 -118 199 -154T38 -191L30 -98Q85 -98 109 -82T133 -27V149Q133 200 159 230T239 276Q186 290 160 320T133 402V578Q133 616
109 632T30 649L38 742Q150 742 198 706T246 589V427Q246 371 271 347Z" />
<glyph unicode="~" glyph-name="asciitilde" horiz-adv-x="576" d="M528 323T491 278T384 232Q349 232 325 242T271 273Q250 287 237 293T208 300Q164 300 155 235H43Q54 413 193 413Q227 413 251 403T305 372Q325 358 339 352T369 345Q412 345 421 410H533Q528
323 491 278Z" />
<glyph unicode="&#xa0;" glyph-name="uni00A0" horiz-adv-x="306" />
<glyph unicode="&#xa1;" glyph-name="exclamdown" horiz-adv-x="286" d="M104 355T81 376T58 432Q58 467 81 488T143 509Q182 509 205 488T228 432Q228 397 205 376T143 355Q104 355 81 376ZM71 80L88 287H198L215 80V-160H71V80Z" />
<glyph unicode="&#xa2;" glyph-name="cent" horiz-adv-x="572" d="M526 78T477 39T347 -8V-100H267V-7Q164 5 109 72T53 250Q53 361 109 428T267 508V600H347V508Q428 501 474 463T535 363L426 320Q410 395 347 414V85Q414 102 432 178L537 142Q526 78 477 39ZM175
112T267 87V413Q175 389 175 249Q175 112 267 87Z" />
<glyph unicode="&#xa3;" glyph-name="sterling" horiz-adv-x="624" d="M593 149T593 140Q593 73 557 32T455 -10Q411 -10 376 5T298 49Q242 -10 157 -10Q105 -10 73 14T40 80Q40 121 74 146T163 172Q213 172 255 157V167Q255 216 227 264H65V351H164Q138 387 128
414T118 472Q118 527 145 572T225 643T346 670Q529 670 569 502L456 448Q441 509 415 537T342 565Q295 565 267 541T239 475Q239 452 249 428T288 363L297 351H489V264H342Q352 231 352 194Q352 154 338 115Q363 101 384 94T431 86Q469 86 486 107T503 175L591
167Q593 149 593 140ZM213 50T237 88Q197 109 163 109Q142 109 131 102T120 81Q120 66 132 58T163 50Q213 50 237 88Z" />
<glyph unicode="&#xa4;" glyph-name="currency" horiz-adv-x="653" d="M539 267T510 218L605 132L523 51L435 146Q388 120 327 120Q266 120 217 147L129 51L49 132L142 219Q114 269 114 329Q114 390 143 440L49 526L129 607L218 512Q265 538 327 538Q386 538 437
511L523 607L605 526L511 438Q539 390 539 329Q539 267 510 218ZM371 223T399 252T427 329Q427 376 399 405T327 435Q283 435 255 406T226 329Q226 282 254 253T327 223Q371 223 399 252Z" />
<glyph unicode="&#xa5;" glyph-name="yen" horiz-adv-x="657" d="M463 302H586V242H393V173H586V116H393V0H264V116H72V173H264V242H72V302H194L248 298L25 660H170L282 440L328 339H330L375 441L487 660H632L409 298L463 302Z" />
<glyph unicode="&#xa6;" glyph-name="brokenbar" horiz-adv-x="266" d="M193 345H73V719H193V345ZM193 -168H73V206H193V-168Z" />
<glyph unicode="&#xa7;" glyph-name="section" horiz-adv-x="614" d="M589 187T509 133Q529 102 529 53Q529 -21 469 -65T306 -110Q224 -110 171 -86T80 -12L157 57Q181 20 215 3T305 -14Q361 -14 390 0T420 41Q420 73 387 90T269 118Q139 132 83 170T27 280Q27
369 107 421Q87 454 87 502Q87 551 114 589T193 648T314 670Q398 670 448 645T536 572L461 503Q434 540 401 557T314 574Q257 574 227 558T196 514Q196 481 229 464T347 437Q477 423 533 385T589 275Q589 187 509 133ZM133 267T165 251T281 226Q376 215 430 194Q483
218 483 257Q483 288 451 304T335 329Q243 338 186 361Q133 337 133 298Q133 267 165 251Z" />
<glyph unicode="&#xa8;" glyph-name="dieresis" horiz-adv-x="500" d="M181 705T201 686T221 635Q221 603 201 584T146 565Q112 565 92 584T72 635Q72 667 92 686T146 705Q181 705 201 686ZM391 705T411 686T432 635Q432 603 412 584T356 565Q322 565 302 584T282
635Q282 667 302 686T356 705Q391 705 411 686Z" />
<glyph unicode="&#xa9;" glyph-name="copyright" horiz-adv-x="790" d="M498 670T575 628T695 509T738 330Q738 228 696 151T576 32T395 -10Q291 -10 214 32T94 151T51 330Q51 432 93 509T213 628T395 670Q498 670 575 628ZM316 593T257 561T166 469T134 330Q134
251 166 192T257 100T395 67Q473 67 532 99T623 191T656 330Q656 409 624 468T532 560T395 593Q316 593 257 561ZM527 518T566 413L484 372Q473 398 454 410T401 422Q360 422 338 398T315 329Q315 284 338 260T402 235Q436 235 457 247T489 288L567 252Q545 194
505 167T395 140Q312 140 264 191T215 329Q215 416 263 467T395 518Q527 518 566 413Z" />
<glyph unicode="&#xaa;" glyph-name="ordfeminine" horiz-adv-x="418" d="M388 380T395 383L387 325Q367 314 338 314Q307 314 286 327T258 367Q241 342 209 328T132 314Q79 314 51 335T22 397Q22 440 53 466T155 506L240 522V535Q240 561 225 575T182 589Q154
589 136 577T109 535L27 561Q36 609 77 636T187 663Q345 663 345 534V410Q345 380 373 380Q388 380 395 383ZM197 381T218 396T240 436V473L187 461Q154 454 139 443T124 413Q124 381 169 381Q197 381 218 396ZM31 245H380V169H31V245Z" />
<glyph unicode="&#xab;" glyph-name="guillemotleft" horiz-adv-x="552" d="M168 265L292 69H166L41 265L166 461H292L168 265ZM386 265L510 69H384L259 265L384 461H510L386 265Z" />
<glyph unicode="&#xac;" glyph-name="logicalnot" horiz-adv-x="604" d="M545 374V110H429V270H59V374H545Z" />
<glyph unicode="&#xad;" glyph-name="uni00AD" horiz-adv-x="521" d="M437 206H84V324H437V206Z" />
<glyph unicode="&#xae;" glyph-name="registered" horiz-adv-x="790" d="M498 670T575 628T695 509T738 330Q738 228 696 151T576 32T395 -10Q291 -10 214 32T94 151T51 330Q51 432 93 509T213 628T395 670Q498 670 575 628ZM473 67T532 99T623 191T656 330Q656
409 624 468T532 560T395 593Q316 593 257 561T166 469T134 330Q134 251 166 192T257 100T395 67Q473 67 532 99ZM558 354T537 326T475 285L567 148H462L388 276H346V148H257V515H424Q483 515 520 482T558 395Q558 354 537 326ZM346 339H408Q468 339 468 391Q468
443 408 443H346V339Z" />
<glyph unicode="&#xaf;" glyph-name="overscore" horiz-adv-x="500" d="M432 579H68V670H432V579Z" />
<glyph unicode="&#xb0;" glyph-name="degree" horiz-adv-x="482" d="M156 313T104 362T51 492Q51 572 103 621T241 670Q327 670 379 621T432 492Q432 412 380 363T241 313Q156 313 104 362ZM279 406T303 430T328 492Q328 530 304 554T241 578Q204 578 180 554T155
492Q155 455 179 431T241 406Q279 406 303 430Z" />
<glyph unicode="&#xb1;" glyph-name="plusminus" horiz-adv-x="604" d="M550 461V359H355V174H250V359H54V461H250V648H355V461H550ZM54 100H550V0H54V100Z" />
<glyph unicode="&#xb2;" glyph-name="uni00B2" horiz-adv-x="382" d="M33 400Q99 440 123 457Q189 505 215 536T242 598Q242 623 227 638T184 654Q153 654 136 633T118 571L20 600Q22 664 67 699T187 735Q268 735 309 697T351 606Q351 566 323 528T236 450Q209
431 168 413V412Q222 415 250 415H357V333H33V400Z" />
<glyph unicode="&#xb3;" glyph-name="uni00B3" horiz-adv-x="373" d="M258 735T297 706T337 624Q337 584 313 560T255 533V530Q294 530 319 507T345 443Q345 391 302 359T187 327Q117 327 75 351T15 426L112 464Q118 405 181 405Q209 405 225 418T241 456Q241
499 181 499H158V558H177Q204 558 218 570T233 606Q233 654 180 654Q155 654 139 641T119 600L25 631Q36 683 79 709T185 735Q258 735 297 706Z" />
<glyph unicode="&#xb4;" glyph-name="acute" horiz-adv-x="500" d="M394 742L294 572H192L262 742H394Z" />
<glyph unicode="&#xb5;" glyph-name="uni00B5" horiz-adv-x="615" d="M547 500V0H428L422 89Q377 -10 258 -10Q232 -10 206 -2V-210H69V500H206V204Q206 146 227 122T293 98Q343 98 373 126T410 205V500H547Z" />
<glyph unicode="&#xb6;" glyph-name="paragraph" horiz-adv-x="702" d="M627 -100H514V553H398V-100H284V235Q166 236 102 291T37 447Q37 550 105 605T305 660H627V-100Z" />
<glyph unicode="&#xb7;" glyph-name="middot" horiz-adv-x="256" d="M168 435T191 414T215 354Q215 316 192 295T128 273Q88 273 65 294T41 354Q41 392 64 413T128 435Q168 435 191 414Z" />
<glyph unicode="&#xb8;" glyph-name="cedilla" horiz-adv-x="500" d="M232 34Q305 20 344 -17T384 -101Q384 -154 348 -184T251 -215Q173 -215 132 -177L168 -106Q181 -120 199 -128T239 -136Q263 -136 278 -122T294 -83Q294 -54 272 -35T190 3L232 34Z" />
<glyph unicode="&#xb9;" glyph-name="uni00B9" horiz-adv-x="277" d="M232 730V333H128V562Q128 590 131 629Q74 583 16 577V663Q47 668 87 688T143 730H232Z" />
<glyph unicode="&#xba;" glyph-name="ordmasculine" horiz-adv-x="400" d="M118 314T73 360T27 488Q27 571 72 617T200 663Q282 663 327 617T372 488Q372 406 327 360T200 314Q118 314 73 360ZM234 386T250 411T267 488Q267 592 200 592Q133 592 133 488Q133 437
149 412T200 386Q234 386 250 411ZM36 245H364V169H36V245Z" />
<glyph unicode="&#xbb;" glyph-name="guillemotright" horiz-adv-x="551" d="M166 461L291 265L166 69H40L164 265L40 461H166ZM385 461L510 265L385 69H259L383 265L259 461H385Z" />
<glyph unicode="&#xbc;" glyph-name="onequarter" horiz-adv-x="849" d="M232 665V268H128V497Q128 525 131 564Q74 518 16 512V598Q47 603 87 623T143 665H232ZM592 660H696L220 0H115L592 660ZM832 86H768V-4H678V86H478V135L647 393H768V156H832V86ZM678 156V247Q678
266 680 302L681 326H678Q667 298 647 268L570 156H678Z" />
<glyph unicode="&#xbd;" glyph-name="onehalf" horiz-adv-x="917" d="M232 665V268H128V497Q128 525 131 564Q74 518 16 512V598Q47 603 87 623T143 665H232ZM592 660H696L220 0H115L592 660ZM568 63Q634 103 658 120Q724 168 750 199T777 261Q777 286 762 301T719
317Q688 317 671 296T653 234L555 263Q557 327 602 362T722 398Q803 398 844 360T886 269Q886 229 858 191T771 113Q744 94 703 76V75Q757 78 785 78H892V-4H568V63Z" />
<glyph unicode="&#xbe;" glyph-name="threequarters" horiz-adv-x="945" d="M258 670T297 641T337 559Q337 519 313 495T255 468V465Q294 465 319 442T345 378Q345 326 302 294T187 262Q117 262 75 285T14 361L112 399Q118 340 181 340Q209 340 225 353T241 391Q241
434 181 434H158V493H177Q204 493 218 505T233 541Q233 589 180 589Q155 589 139 576T119 535L25 566Q36 618 79 644T185 670Q258 670 297 641ZM688 660H792L316 0H211L688 660ZM927 86H863V-4H773V86H573V135L742 393H863V156H927V86ZM773 156V247Q773 266 775
302L776 326H773Q762 298 742 268L665 156H773Z" />
<glyph unicode="&#xbf;" glyph-name="questiondown" horiz-adv-x="580" d="M261 353T238 374T215 431Q215 467 238 488T301 509Q341 509 363 488T386 431Q386 395 364 374T301 353Q261 353 238 374ZM176 -170T110 -125T43 8Q43 95 94 140T233 195L239 289H362L368
137Q272 127 231 101T190 27Q190 -12 216 -33T296 -55Q348 -55 380 -25T417 59L547 4Q534 -75 468 -122T287 -170Q176 -170 110 -125Z" />
<glyph unicode="&#xc0;" glyph-name="Agrave" horiz-adv-x="671" d="M280 730L191 885H327L383 730H280ZM461 161H207L153 0H12L253 660H418L659 0H516L461 161ZM427 263L365 449L335 549H333L305 451L241 263H427Z" />
<glyph unicode="&#xc1;" glyph-name="Aacute" horiz-adv-x="671" d="M377 730H274L330 885H466L377 730ZM461 161H207L153 0H12L253 660H418L659 0H516L461 161ZM427 263L365 449L335 549H333L305 451L241 263H427Z" />
<glyph unicode="&#xc2;" glyph-name="Acircumflex" horiz-adv-x="671" d="M261 726H155L266 893H404L515 726H409L335 824L261 726ZM461 161H207L153 0H12L253 660H418L659 0H516L461 161ZM427 263L365 449L335 549H333L305 451L241 263H427Z" />
<glyph unicode="&#xc3;" glyph-name="Atilde" horiz-adv-x="671" d="M461 161H207L153 0H12L253 660H418L659 0H516L461 161ZM427 263L365 449L335 549H333L305 451L241 263H427ZM523 803T492 766T402 728Q373 728 354 738T313 766Q299 778 290 783T269 789Q251
789 241 774T227 728H143Q151 878 269 878Q298 878 317 868T357 840Q372 828 381 823T401 817Q419 817 429 832T443 878H527Q523 803 492 766Z" />
<glyph unicode="&#xc4;" glyph-name="Adieresis" horiz-adv-x="671" d="M461 161H207L153 0H12L253 660H418L659 0H516L461 161ZM427 263L365 449L335 549H333L305 451L241 263H427ZM264 865T284 846T304 795Q304 763 284 744T229 725Q195 725 175 744T155 795Q155
827 175 846T229 865Q264 865 284 846ZM474 865T494 846T515 795Q515 763 495 744T439 725Q405 725 385 744T365 795Q365 827 385 846T439 865Q474 865 494 846Z" />
<glyph unicode="&#xc5;" glyph-name="Aring" horiz-adv-x="671" d="M461 161H207L153 0H12L247 634Q222 649 209 674T195 732Q195 789 233 823T336 858Q401 858 439 824T477 732Q477 700 463 675T424 634L659 0H516L461 161ZM308 790T291 773T273 729Q273 702
290 685T336 668Q364 668 381 685T399 729Q399 756 382 773T336 790Q308 790 291 773ZM427 263L365 449L336 549H333L305 451L241 263H427Z" />
<glyph unicode="&#xc6;" glyph-name="AE" horiz-adv-x="935" d="M897 108V0H432V202H232L141 0H0L321 660H883V552H563V384H807V281H563V108H897ZM432 301V555H392L277 301H432Z" />
<glyph unicode="&#xc7;" glyph-name="Ccedilla" horiz-adv-x="683" d="M627 104T572 57T439 -4Q466 -23 480 -48T494 -101Q494 -154 458 -184T361 -215Q283 -215 242 -177L278 -106Q291 -120 309 -128T349 -136Q373 -136 388 -122T404 -83Q404 -58 389 -41T333
-8Q202 3 128 92T53 330Q53 435 91 511T201 629T369 670Q472 670 543 627T642 499L517 446Q501 505 467 531T375 557Q291 557 244 498T196 330Q196 221 242 162T372 103Q493 103 524 220L651 182Q627 104 572 57Z" />
<glyph unicode="&#xc8;" glyph-name="Egrave" horiz-adv-x="633" d="M295 730L206 885H342L398 730H295ZM595 111V0H86V660H581V549H224V385H505V279H224V111H595Z" />
<glyph unicode="&#xc9;" glyph-name="Eacute" horiz-adv-x="633" d="M371 730H268L324 885H460L371 730ZM595 111V0H86V660H581V549H224V385H505V279H224V111H595Z" />
<glyph unicode="&#xca;" glyph-name="Ecircumflex" horiz-adv-x="633" d="M255 726H149L260 893H398L509 726H403L329 824L255 726ZM595 111V0H86V660H581V549H224V385H505V279H224V111H595Z" />
<glyph unicode="&#xcb;" glyph-name="Edieresis" horiz-adv-x="633" d="M595 111V0H86V660H581V549H224V385H505V279H224V111H595ZM258 865T278 846T298 795Q298 763 278 744T223 725Q189 725 169 744T149 795Q149 827 169 846T223 865Q258 865 278 846ZM468 865T488
846T509 795Q509 763 489 744T433 725Q399 725 379 744T359 795Q359 827 379 846T433 865Q468 865 488 846Z" />
<glyph unicode="&#xcc;" glyph-name="Igrave" horiz-adv-x="310" d="M203 730H100L11 885H147L203 730ZM224 0H86V660H224V0Z" />
<glyph unicode="&#xcd;" glyph-name="Iacute" horiz-adv-x="310" d="M286 885L197 730H94L150 885H286ZM224 0H86V660H224V0Z" />
<glyph unicode="&#xce;" glyph-name="Icircumflex" horiz-adv-x="310" d="M229 726L155 824L81 726H-25L86 893H224L335 726H229ZM224 0H86V660H224V0Z" />
<glyph unicode="&#xcf;" glyph-name="Idieresis" horiz-adv-x="310" d="M92 865T112 846T132 795Q132 763 112 744T58 725Q25 725 6 744T-14 795Q-14 827 5 846T58 865Q92 865 112 846ZM284 865T304 846T324 795Q324 763 304 744T250 725Q217 725 198 744T178
795Q178 827 197 846T250 865Q284 865 304 846ZM224 0H86V660H224V0Z" />
<glyph unicode="&#xd0;" glyph-name="Eth" horiz-adv-x="740" d="M517 660T601 574T686 330Q686 172 602 86T362 0H107V284H18V378H107V660H362Q517 660 601 574ZM448 110T496 166T544 330Q544 437 496 493T354 550H245V378H399V284H245V110H354Q448 110 496 166Z" />
<glyph unicode="&#xd1;" glyph-name="Ntilde" horiz-adv-x="739" d="M653 0H495L264 388L207 499H206L210 382V0H86V660H243L474 273L531 161H533L529 278V660H653V0ZM559 803T528 766T438 728Q409 728 390 738T349 766Q335 778 326 783T305 789Q287 789 277 774T263
728H179Q187 878 305 878Q334 878 353 868T393 840Q408 828 417 823T437 817Q455 817 465 832T479 878H563Q559 803 528 766Z" />
<glyph unicode="&#xd2;" glyph-name="Ograve" horiz-adv-x="741" d="M419 730H316L227 885H363L419 730ZM468 670T539 629T649 512T688 330Q688 225 650 149T540 31T371 -10Q274 -10 202 31T92 148T53 330Q53 435 91 511T202 629T371 670Q468 670 539 629ZM287
557T242 499T196 330Q196 220 241 162T371 103Q454 103 499 161T545 330Q545 440 500 498T371 557Q287 557 242 499Z" />
<glyph unicode="&#xd3;" glyph-name="Oacute" horiz-adv-x="741" d="M502 885L413 730H310L366 885H502ZM468 670T539 629T649 512T688 330Q688 225 650 149T540 31T371 -10Q274 -10 202 31T92 148T53 330Q53 435 91 511T202 629T371 670Q468 670 539 629ZM287
557T242 499T196 330Q196 220 241 162T371 103Q454 103 499 161T545 330Q545 440 500 498T371 557Q287 557 242 499Z" />
<glyph unicode="&#xd4;" glyph-name="Ocircumflex" horiz-adv-x="741" d="M445 726L371 824L297 726H191L302 893H440L551 726H445ZM468 670T539 629T649 512T688 330Q688 225 650 149T540 31T371 -10Q274 -10 202 31T92 148T53 330Q53 435 91 511T202 629T371
670Q468 670 539 629ZM287 557T242 499T196 330Q196 220 241 162T371 103Q454 103 499 161T545 330Q545 440 500 498T371 557Q287 557 242 499Z" />
<glyph unicode="&#xd5;" glyph-name="Otilde" horiz-adv-x="741" d="M468 670T539 629T649 512T688 330Q688 225 650 149T540 31T371 -10Q274 -10 202 31T92 148T53 330Q53 435 91 511T202 629T371 670Q468 670 539 629ZM287 557T242 499T196 330Q196 220 241
162T371 103Q454 103 499 161T545 330Q545 440 500 498T371 557Q287 557 242 499ZM558 803T527 766T437 728Q408 728 389 738T348 766Q334 778 325 783T304 789Q286 789 276 774T262 728H178Q186 878 304 878Q333 878 352 868T392 840Q407 828 416 823T436 817Q454
817 464 832T478 878H562Q558 803 527 766Z" />
<glyph unicode="&#xd6;" glyph-name="Odieresis" horiz-adv-x="741" d="M468 670T539 629T649 512T688 330Q688 225 650 149T540 31T371 -10Q274 -10 202 31T92 148T53 330Q53 435 91 511T202 629T371 670Q468 670 539 629ZM287 557T242 499T196 330Q196 220 241
162T371 103Q454 103 499 161T545 330Q545 440 500 498T371 557Q287 557 242 499ZM300 865T320 846T340 795Q340 763 320 744T265 725Q231 725 211 744T191 795Q191 827 211 846T265 865Q300 865 320 846ZM510 865T530 846T551 795Q551 763 531 744T475 725Q441
725 421 744T401 795Q401 827 421 846T475 865Q510 865 530 846Z" />
<glyph unicode="&#xd7;" glyph-name="multiply" horiz-adv-x="604" d="M379 323L539 163L462 85L302 245L142 85L64 163L224 323L64 483L142 561L302 401L462 561L539 483L379 323Z" />
<glyph unicode="&#xd8;" glyph-name="Oslash" horiz-adv-x="741" d="M642 540T665 476T688 330Q688 225 650 149T540 31T371 -10Q271 -10 199 33L153 -31H73L146 72Q101 117 77 182T53 330Q53 435 91 511T202 629T371 670Q473 670 547 625L588 682H668L598 584Q642
540 665 476ZM287 557T242 499T196 330Q196 236 229 180L472 526Q430 557 371 557Q287 557 242 499ZM454 103T499 161T545 330Q545 417 516 473L275 130Q314 103 371 103Q454 103 499 161Z" />
<glyph unicode="&#xd9;" glyph-name="Ugrave" horiz-adv-x="715" d="M406 730H303L214 885H350L406 730ZM640 260Q640 126 569 58T358 -10Q219 -10 148 58T76 260V660H214V266Q214 183 249 143T358 103Q431 103 466 143T501 266V660H640V260Z" />
<glyph unicode="&#xda;" glyph-name="Uacute" horiz-adv-x="715" d="M489 885L400 730H297L353 885H489ZM640 260Q640 126 569 58T358 -10Q219 -10 148 58T76 260V660H214V266Q214 183 249 143T358 103Q431 103 466 143T501 266V660H640V260Z" />
<glyph unicode="&#xdb;" glyph-name="Ucircumflex" horiz-adv-x="715" d="M432 726L358 824L284 726H178L289 893H427L538 726H432ZM640 260Q640 126 569 58T358 -10Q219 -10 148 58T76 260V660H214V266Q214 183 249 143T358 103Q431 103 466 143T501 266V660H640V260Z" />
<glyph unicode="&#xdc;" glyph-name="Udieresis" horiz-adv-x="715" d="M640 260Q640 126 569 58T358 -10Q219 -10 148 58T76 260V660H214V266Q214 183 249 143T358 103Q431 103 466 143T501 266V660H640V260ZM287 865T307 846T327 795Q327 763 307 744T252 725Q218
725 198 744T178 795Q178 827 198 846T252 865Q287 865 307 846ZM497 865T517 846T538 795Q538 763 518 744T462 725Q428 725 408 744T388 795Q388 827 408 846T462 865Q497 865 517 846Z" />
<glyph unicode="&#xdd;" glyph-name="Yacute" horiz-adv-x="626" d="M444 885L355 730H252L308 885H444ZM382 247V0H244V247L10 660H157L263 463L313 359L364 463L470 660H616L382 247Z" />
<glyph unicode="&#xde;" glyph-name="Thorn" horiz-adv-x="652" d="M477 553T542 498T607 337Q608 232 543 177T352 121H224V0H86V660H224V553H352Q477 553 542 498ZM405 230T436 256T467 337Q467 391 436 417T342 444H224V230H342Q405 230 436 256Z" />
<glyph unicode="&#xdf;" glyph-name="germandbls" horiz-adv-x="637" d="M471 374T512 349T573 281T594 189Q594 136 570 91T495 18T373 -10Q337 -10 306 -1T256 23L282 118Q309 94 356 94Q406 94 434 125T462 207Q462 260 428 288T330 316H285L296 420H330Q381
420 410 448T439 522Q439 569 412 593T332 618Q264 618 237 580T209 457V0H72V474Q72 594 134 659T337 724Q416 724 469 698T548 628T574 533Q574 494 556 458T501 399T411 376V374Q471 374 512 349Z" />
<glyph unicode="&#xe0;" glyph-name="agrave" horiz-adv-x="574" d="M550 83T563 87L553 4Q525 -10 488 -10Q392 -10 373 65Q351 28 305 9T196 -10Q123 -10 82 23T41 118Q41 240 236 276L356 299V323Q356 363 334 386T271 410Q225 410 196 390T156 325L47 371Q63
436 119 473T265 510Q372 510 432 464T492 326V121Q492 101 501 92T529 83Q550 83 563 87ZM283 83T319 104T356 163V215L249 191Q215 183 199 170T182 132Q182 108 197 96T239 83Q283 83 319 104ZM334 572H232L132 742H264L334 572Z" />
<glyph unicode="&#xe1;" glyph-name="aacute" horiz-adv-x="574" d="M550 83T563 87L553 4Q525 -10 488 -10Q392 -10 373 65Q351 28 305 9T196 -10Q123 -10 82 23T41 118Q41 240 236 276L356 299V323Q356 363 334 386T271 410Q225 410 196 390T156 325L47 371Q63
436 119 473T265 510Q372 510 432 464T492 326V121Q492 101 501 92T529 83Q550 83 563 87ZM283 83T319 104T356 163V215L249 191Q215 183 199 170T182 132Q182 108 197 96T239 83Q283 83 319 104ZM411 742L311 572H209L279 742H411Z" />
<glyph unicode="&#xe2;" glyph-name="acircumflex" horiz-adv-x="574" d="M550 83T563 87L553 4Q525 -10 488 -10Q392 -10 373 65Q351 28 305 9T196 -10Q123 -10 82 23T41 118Q41 240 236 276L356 299V323Q356 363 334 386T271 410Q225 410 196 390T156 325L47
371Q63 436 119 473T265 510Q372 510 432 464T492 326V121Q492 101 501 92T529 83Q550 83 563 87ZM283 83T319 104T356 163V215L249 191Q215 183 199 170T182 132Q182 108 197 96T239 83Q283 83 319 104ZM350 565L276 661L202 565H97L207 736H345L455 565H350Z"
/>
<glyph unicode="&#xe3;" glyph-name="atilde" horiz-adv-x="574" d="M550 83T563 87L553 4Q525 -10 488 -10Q392 -10 373 65Q351 28 305 9T196 -10Q123 -10 82 23T41 118Q41 240 236 276L356 299V323Q356 363 334 386T271 410Q225 410 196 390T156 325L47 371Q63
436 119 473T265 510Q372 510 432 464T492 326V121Q492 101 501 92T529 83Q550 83 563 87ZM283 83T319 104T356 163V215L249 191Q215 183 199 170T182 132Q182 108 197 96T239 83Q283 83 319 104ZM463 643T432 606T342 568Q313 568 294 578T253 606Q239 618 230
623T209 629Q191 629 181 614T167 568H83Q91 718 209 718Q238 718 257 708T297 680Q312 668 321 663T341 657Q359 657 369 672T383 718H467Q463 643 432 606Z" />
<glyph unicode="&#xe4;" glyph-name="adieresis" horiz-adv-x="574" d="M550 83T563 87L553 4Q525 -10 488 -10Q392 -10 373 65Q351 28 305 9T196 -10Q123 -10 82 23T41 118Q41 240 236 276L356 299V323Q356 363 334 386T271 410Q225 410 196 390T156 325L47 371Q63
436 119 473T265 510Q372 510 432 464T492 326V121Q492 101 501 92T529 83Q550 83 563 87ZM283 83T319 104T356 163V215L249 191Q215 183 199 170T182 132Q182 108 197 96T239 83Q283 83 319 104ZM205 705T225 686T245 635Q245 603 225 584T170 565Q136 565 116
584T96 635Q96 667 116 686T170 705Q205 705 225 686ZM415 705T435 686T456 635Q456 603 436 584T380 565Q346 565 326 584T306 635Q306 667 326 686T380 705Q415 705 435 686Z" />
<glyph unicode="&#xe5;" glyph-name="aring" horiz-adv-x="574" d="M550 83T563 87L553 4Q525 -10 488 -10Q392 -10 373 65Q351 28 305 9T196 -10Q123 -10 82 23T41 118Q41 240 236 276L356 299V323Q356 363 334 386T271 410Q225 410 196 390T156 325L47 371Q63
436 119 473T265 510Q372 510 432 464T492 326V121Q492 101 501 92T529 83Q550 83 563 87ZM283 83T319 104T356 163V215L249 191Q215 183 199 170T182 132Q182 108 197 96T239 83Q283 83 319 104ZM336 800T371 768T406 680Q406 625 371 593T275 560Q214 560 179
592T143 680Q143 735 178 767T275 800Q336 800 371 768ZM249 738T233 722T216 680Q216 655 232 639T275 623Q301 623 317 639T334 680Q334 706 318 722T275 738Q249 738 233 722Z" />
<glyph unicode="&#xe6;" glyph-name="ae" horiz-adv-x="882" d="M836 238T832 208H497Q505 150 536 121T614 92Q657 92 680 107T715 154L826 113Q777 -10 611 -10Q482 -10 426 86Q376 -10 204 -10Q126 -10 84 24T41 118Q41 179 86 216T227 272L361 298V323Q361
364 337 387T267 410Q184 410 158 328L49 366Q65 434 122 472T273 510Q331 510 373 490T441 429Q470 468 512 489T606 510Q717 510 776 444T836 272Q836 238 832 208ZM562 409T533 380T497 292H712Q707 350 683 379T610 409Q562 409 533 380ZM292 83T326 110T361
184V220L269 199Q222 187 202 173T182 132Q182 107 197 95T245 83Q292 83 326 110Z" />
<glyph unicode="&#xe7;" glyph-name="ccedilla" horiz-adv-x="569" d="M519 85T478 47T371 -4Q398 -23 412 -48T426 -101Q426 -154 390 -184T293 -215Q215 -215 174 -177L210 -106Q223 -120 241 -128T281 -136Q305 -136 320 -122T336 -83Q336 -58 320 -41T263
-8Q159 4 103 71T46 250Q46 373 113 441T301 510Q400 510 455 470T530 363L402 317Q384 408 305 408Q246 408 215 368T183 249Q183 171 215 132T304 92Q392 92 408 181L532 141Q519 85 478 47Z" />
<glyph unicode="&#xe8;" glyph-name="egrave" horiz-adv-x="582" d="M539 224T535 198H181Q202 92 306 92Q349 92 377 108T416 154L528 113Q504 53 448 22T306 -10Q182 -10 114 58T46 250Q46 373 112 441T298 510Q414 510 476 443T539 252Q539 224 535 198ZM247
409T218 380T180 294H413Q405 350 375 379T297 409Q247 409 218 380ZM353 572H251L151 742H283L353 572Z" />
<glyph unicode="&#xe9;" glyph-name="eacute" horiz-adv-x="582" d="M539 224T535 198H181Q202 92 306 92Q349 92 377 108T416 154L528 113Q504 53 448 22T306 -10Q182 -10 114 58T46 250Q46 373 112 441T298 510Q414 510 476 443T539 252Q539 224 535 198ZM247
409T218 380T180 294H413Q405 350 375 379T297 409Q247 409 218 380ZM430 742L330 572H228L298 742H430Z" />
<glyph unicode="&#xea;" glyph-name="ecircumflex" horiz-adv-x="582" d="M539 224T535 198H181Q202 92 306 92Q349 92 377 108T416 154L528 113Q504 53 448 22T306 -10Q182 -10 114 58T46 250Q46 373 112 441T298 510Q414 510 476 443T539 252Q539 224 535 198ZM247
409T218 380T180 294H413Q405 350 375 379T297 409Q247 409 218 380ZM369 565L295 661L221 565H116L226 736H364L474 565H369Z" />
<glyph unicode="&#xeb;" glyph-name="edieresis" horiz-adv-x="582" d="M539 224T535 198H181Q202 92 306 92Q349 92 377 108T416 154L528 113Q504 53 448 22T306 -10Q182 -10 114 58T46 250Q46 373 112 441T298 510Q414 510 476 443T539 252Q539 224 535 198ZM247
409T218 380T180 294H413Q405 350 375 379T297 409Q247 409 218 380ZM224 705T244 686T264 635Q264 603 244 584T189 565Q155 565 135 584T115 635Q115 667 135 686T189 705Q224 705 244 686ZM434 705T454 686T475 635Q475 603 455 584T399 565Q365 565 345 584T325
635Q325 667 345 686T399 705Q434 705 454 686Z" />
<glyph unicode="&#xec;" glyph-name="igrave" horiz-adv-x="282" d="M209 0H72V500H209V0ZM455 572H353L253 742H385L455 572Z" />
<glyph unicode="&#xed;" glyph-name="iacute" horiz-adv-x="282" d="M209 0H72V500H209V0ZM538 742L438 572H336L406 742H538Z" />
<glyph unicode="&#xee;" glyph-name="icircumflex" horiz-adv-x="282" d="M209 0H72V500H209V0ZM471 565L397 661L323 565H218L328 736H466L576 565H471Z" />
<glyph unicode="&#xef;" glyph-name="idieresis" horiz-adv-x="282" d="M17 564T-2 582T-21 635Q-21 669 -2 687T51 706Q85 706 104 688T123 635Q123 601 104 583T51 564Q17 564 -2 582ZM197 564T178 582T159 635Q159 669 178 687T231 706Q265 706 284 688T303
635Q303 601 284 583T231 564Q197 564 178 582ZM209 0H72V500H209V0Z" />
<glyph unicode="&#xf0;" glyph-name="eth" horiz-adv-x="610" d="M462 607Q556 481 556 298Q556 146 492 68T295 -10Q180 -10 115 56T49 241Q49 318 79 374T164 461T289 491Q396 491 441 421Q420 518 364 584L192 545L182 598L327 623Q273 674 186 725H326Q381
694 429 646L545 675L559 621L462 607ZM362 92T394 133T426 241Q426 317 396 356T307 395Q249 395 219 356T188 241Q188 168 218 130T304 92Q362 92 394 133Z" />
<glyph unicode="&#xf1;" glyph-name="ntilde" horiz-adv-x="619" d="M451 510T500 463T550 328V0H413V288Q413 402 324 402Q276 402 243 368T209 264V0H72V500H195L199 411Q224 460 268 485T370 510Q451 510 500 463ZM502 643T471 606T381 568Q352 568 333 578T292
606Q278 618 269 623T248 629Q230 629 220 614T206 568H122Q130 718 248 718Q277 718 296 708T336 680Q351 668 360 663T380 657Q398 657 408 672T422 718H506Q502 643 471 606Z" />
<glyph unicode="&#xf2;" glyph-name="ograve" horiz-adv-x="604" d="M423 510T490 441T558 250Q558 128 491 59T302 -10Q181 -10 114 59T46 250Q46 372 113 441T302 510Q423 510 490 441ZM244 408T214 369T183 250Q183 171 213 132T302 92Q360 92 390 131T421
250Q421 329 391 368T302 408Q244 408 214 369ZM360 572H258L158 742H290L360 572Z" />
<glyph unicode="&#xf3;" glyph-name="oacute" horiz-adv-x="604" d="M423 510T490 441T558 250Q558 128 491 59T302 -10Q181 -10 114 59T46 250Q46 372 113 441T302 510Q423 510 490 441ZM244 408T214 369T183 250Q183 171 213 132T302 92Q360 92 390 131T421
250Q421 329 391 368T302 408Q244 408 214 369ZM437 742L337 572H235L305 742H437Z" />
<glyph unicode="&#xf4;" glyph-name="ocircumflex" horiz-adv-x="604" d="M423 510T490 441T558 250Q558 128 491 59T302 -10Q181 -10 114 59T46 250Q46 372 113 441T302 510Q423 510 490 441ZM244 408T214 369T183 250Q183 171 213 132T302 92Q360 92 390 131T421
250Q421 329 391 368T302 408Q244 408 214 369ZM376 565L302 661L228 565H123L233 736H371L481 565H376Z" />
<glyph unicode="&#xf5;" glyph-name="otilde" horiz-adv-x="604" d="M423 510T490 441T558 250Q558 128 491 59T302 -10Q181 -10 114 59T46 250Q46 372 113 441T302 510Q423 510 490 441ZM244 408T214 369T183 250Q183 171 213 132T302 92Q360 92 390 131T421
250Q421 329 391 368T302 408Q244 408 214 369ZM489 643T458 606T368 568Q339 568 320 578T279 606Q265 618 256 623T235 629Q217 629 207 614T193 568H109Q117 718 235 718Q264 718 283 708T323 680Q338 668 347 663T367 657Q385 657 395 672T409 718H493Q489
643 458 606Z" />
<glyph unicode="&#xf6;" glyph-name="odieresis" horiz-adv-x="604" d="M423 510T490 441T558 250Q558 128 491 59T302 -10Q181 -10 114 59T46 250Q46 372 113 441T302 510Q423 510 490 441ZM244 408T214 369T183 250Q183 171 213 132T302 92Q360 92 390 131T421
250Q421 329 391 368T302 408Q244 408 214 369ZM231 705T251 686T271 635Q271 603 251 584T196 565Q162 565 142 584T122 635Q122 667 142 686T196 705Q231 705 251 686ZM441 705T461 686T482 635Q482 603 462 584T406 565Q372 565 352 584T332 635Q332 667 352
686T406 705Q441 705 461 686Z" />
<glyph unicode="&#xf7;" glyph-name="divide" horiz-adv-x="604" d="M340 607T361 587T383 530Q383 495 362 475T303 454Q266 454 245 474T223 530Q223 566 244 586T303 607Q340 607 361 587ZM551 270H53V374H551V270ZM340 191T361 171T383 115Q383 79 362 59T303
38Q266 38 245 58T223 115Q223 150 244 170T303 191Q340 191 361 171Z" />
<glyph unicode="&#xf8;" glyph-name="oslash" horiz-adv-x="605" d="M390 510T451 472L490 522H557L492 439Q558 371 558 250Q558 128 491 59T302 -10Q220 -10 162 22L122 -31H55L119 54Q83 87 65 137T46 250Q46 372 113 441T302 510Q390 510 451 472ZM207 156L235
196L376 383Q348 408 302 408Q244 408 214 369T183 250Q183 194 206 156H207ZM360 92T390 131T421 250Q421 301 402 333H401L376 296L236 111Q261 92 302 92Q360 92 390 131Z" />
<glyph unicode="&#xf9;" glyph-name="ugrave" horiz-adv-x="619" d="M547 500V0H425L420 86Q372 -10 245 -10Q164 -10 117 33T69 169V500H206V204Q206 146 228 122T293 98Q345 98 377 131T410 232V500H547ZM364 572H262L162 742H294L364 572Z" />
<glyph unicode="&#xfa;" glyph-name="uacute" horiz-adv-x="619" d="M547 500V0H425L420 86Q372 -10 245 -10Q164 -10 117 33T69 169V500H206V204Q206 146 228 122T293 98Q345 98 377 131T410 232V500H547ZM442 742L342 572H240L310 742H442Z" />
<glyph unicode="&#xfb;" glyph-name="ucircumflex" horiz-adv-x="619" d="M547 500V0H425L420 86Q372 -10 245 -10Q164 -10 117 33T69 169V500H206V204Q206 146 228 122T293 98Q345 98 377 131T410 232V500H547ZM380 565L306 661L232 565H127L237 736H375L485 565H380Z" />
<glyph unicode="&#xfc;" glyph-name="udieresis" horiz-adv-x="619" d="M547 500V0H425L420 86Q372 -10 245 -10Q164 -10 117 33T69 169V500H206V204Q206 146 228 122T293 98Q345 98 377 131T410 232V500H547ZM236 705T256 686T276 635Q276 603 256 584T201 565Q167
565 147 584T127 635Q127 667 147 686T201 705Q236 705 256 686ZM446 705T466 686T487 635Q487 603 467 584T411 565Q377 565 357 584T337 635Q337 667 357 686T411 705Q446 705 466 686Z" />
<glyph unicode="&#xfd;" glyph-name="yacute" horiz-adv-x="557" d="M349 -31Q312 -133 264 -174T134 -215Q53 -215 7 -176L41 -79Q57 -97 76 -103T125 -110Q156 -110 175 -97T207 -50L225 -7L170 123L17 500H169L263 200L290 100L320 206L412 500H551L349 -31ZM427
742L327 572H225L295 742H427Z" />
<glyph unicode="&#xfe;" glyph-name="thorn" horiz-adv-x="629" d="M464 510T522 444T580 253Q580 164 551 105T474 18T366 -10Q313 -10 273 12T209 74V-210H72V719H209V420Q233 462 273 486T369 510Q464 510 522 444ZM382 95T412 134T443 250Q443 326 413 365T325
405Q272 405 241 366T209 255V245Q209 174 240 135T325 95Q382 95 412 134Z" />
<glyph unicode="&#xff;" glyph-name="ydieresis" horiz-adv-x="557" d="M349 -31Q312 -133 264 -174T134 -215Q53 -215 7 -176L41 -79Q57 -97 76 -103T125 -110Q156 -110 175 -97T207 -50L225 -7L170 123L17 500H169L263 200L290 100L320 206L412 500H551L349
-31ZM221 705T241 686T261 635Q261 603 241 584T186 565Q152 565 132 584T112 635Q112 667 132 686T186 705Q221 705 241 686ZM431 705T451 686T472 635Q472 603 452 584T396 565Q362 565 342 584T322 635Q322 667 342 686T396 705Q431 705 451 686Z" />
<glyph unicode="&#x2013;" glyph-name="endash" horiz-adv-x="681" d="M602 209H79V322H602V209Z" />
<glyph unicode="&#x2014;" glyph-name="emdash" horiz-adv-x="1009" d="M929 209H79V322H929V209Z" />
<glyph unicode="&#x2018;" glyph-name="quoteleft" horiz-adv-x="280" d="M95 388T70 420T45 505Q45 566 77 616T173 695L236 647Q192 631 162 604T122 542L126 539Q136 549 155 549Q184 549 206 529T228 472Q228 434 204 411T141 388Q95 388 70 420Z" />
<glyph unicode="&#x2019;" glyph-name="quoteright" horiz-adv-x="280" d="M189 694T214 662T239 577Q239 516 207 466T111 387L48 435Q92 451 122 478T163 540L159 543Q147 533 129 533Q100 533 78 553T56 610Q56 648 80 671T143 694Q189 694 214 662Z" />
<glyph unicode="&#x201a;" glyph-name="quotesinglbase" horiz-adv-x="281" d="M440 153T465 121T490 36Q490 -25 458 -75T362 -154L299 -106Q343 -89 373 -62T413 -1L409 2Q399 -8 380 -8Q351 -8 329 12T307 69Q307 108 331 130T394 153Q440 153 465 121Z" />
<glyph unicode="&#x201c;" glyph-name="quotedblleft" horiz-adv-x="504" d="M95 388T70 420T45 505Q45 566 77 616T173 695L236 647Q192 631 162 604T122 542L126 539Q136 549 155 549Q184 549 206 529T228 472Q228 434 204 411T141 388Q95 388 70 420ZM319 388T294
420T269 505Q269 566 301 616T397 695L460 647Q416 631 386 604T346 542L350 539Q360 549 379 549Q408 549 430 529T452 472Q452 434 428 411T365 388Q319 388 294 420Z" />
<glyph unicode="&#x201d;" glyph-name="quotedblright" horiz-adv-x="501" d="M189 694T214 662T239 577Q239 516 207 466T111 387L48 435Q92 451 122 478T163 540L159 543Q147 533 129 533Q100 533 78 553T56 610Q56 648 80 671T143 694Q189 694 214 662ZM410
694T435 662T460 577Q460 516 428 466T332 387L269 435Q313 451 343 478T384 540L380 543Q368 533 350 533Q321 533 299 553T277 610Q277 648 301 671T364 694Q410 694 435 662Z" />
<glyph unicode="&#x201e;" glyph-name="quotedblbase" horiz-adv-x="502" d="M440 153T465 121T490 36Q490 -25 458 -75T362 -154L299 -106Q343 -89 373 -62T413 -1L409 2Q399 -8 380 -8Q351 -8 329 12T307 69Q307 108 331 130T394 153Q440 153 465 121ZM405 153T430
121T455 36Q455 -25 423 -75T327 -154L264 -106Q308 -89 338 -62T378 -1L374 2Q364 -8 345 -8Q316 -8 294 12T272 69Q272 108 296 130T359 153Q405 153 430 121Z" />
<glyph unicode="&#x2022;" glyph-name="bullet" horiz-adv-x="430" d="M280 473T319 435T358 334Q358 272 319 234T215 196Q150 196 111 234T72 334Q72 397 111 435T215 473Q280 473 319 435Z" />
<glyph unicode="&#x2039;" glyph-name="guilsinglleft" horiz-adv-x="333" d="M168 265L292 69H166L41 265L166 461H292L168 265Z" />
<glyph unicode="&#x203a;" glyph-name="guilsinglright" horiz-adv-x="333" d="M167 461L292 265L167 69H41L165 265L41 461H167Z" />
</font>
</defs>
</svg>
